logo

DC Super Hero Girls Hero Of The Year 2016 English Movies HDRip Xv...

  • Category Movies
  • Type Divx/Xvid
  • Language English
  • Total size 705.5 MB
  • Uploaded By nehalpuja
  • Downloads 92
  • Last checked 7 hours ago
  • Date uploaded 2 years ago
  • Seeders 1
  • Leechers 1

Infohash : 8665102887EB48B9C47E18CF5A11EF972FE57F0A

Download DC Super Hero Girls Hero Of The Year 2016 English Movies HDRip XviD AAC New Sample ☻rDX☻ Torrent

DC Super Hero Girls Hero Of The Year 2016 English Movies HDRip XviD AAC New Sample ☻rDX☻

SCREEN SHOTS:

Download DC Super Hero Girls Hero Of The Year 2016 English Movies HDRip XviD AAC New Sample ☻rDX☻ Torrent

or

http://postimage.co.nr/2016/9/wallet/1.html

Format : Matroska
Format version : Version 4 / Version 2
File size : 698 MiB
Duration : 1 h 16 min
Overall bit rate mode : Constant
Overall bit rate : 1 281 kb/s
Movie name : DC Super Hero Girls Hero Of The Year 2016 English Movies HDRip XviD AAC ☻rDX☻

Video
ID : 2
Format : AVC
Format/Info : Advanced Video Codec
Format profile : [email protected]
Format settings, CABAC : Yes
Format settings, ReFrames : 2 frames
Format settings, GOP : M=1, N=12
Codec ID : V_MPEG4/ISO/AVC
Duration : 1 h 16 min
Bit rate mode : Constant
Bit rate : 834 kb/s
Width : 720 pixels
Height : 400 pixels
Display aspect ratio : 16:9
Frame rate mode : Constant
Frame rate : 23.976 FPS
Color space : YUV
Chroma subsampling : 4:2:0
Bit depth : 8 bits
Scan type : Progressive
Bits/(Pixel*Frame) : 0.121
Stream size : 440 MiB (63%)
Title : ☻rDX☻
Default : Yes
Forced : No

Audio
ID : 1
Format : AC-3
Format/Info : Audio Coding 3
Mode extension : CM (complete main)
Format settings, Endianness : Big
Codec ID : A_AC3
Duration : 1 h 16 min
Bit rate mode : Constant
Bit rate : 448 kb/s
Channel(s) : 6 channels
Channel positions : Front: L C R, Side: L R, LFE
Sampling rate : 48.0 kHz
Frame rate : 31.250 FPS (1536 spf)
Compression mode : Lossy
Stream size : 244 MiB (35%)
Title : ☻rDX☻
Default : Yes
Forced : No

Download DC Super Hero Girls Hero Of The Year 2016 English Movies HDRip XviD AAC New Sample ☻rDX☻ Torrent

IMDB : http://www.imdb.com/title/tt5836262/

Files:

  • Sample ~ DC Super Hero Girls Hero Of The Year 2016 English Movies HDRip XviD AAC ☻rDX☻.mkv (7.0 MB)
  • DC Super Hero Girls Hero Of The Year 2016 English Movies HDRip XviD AAC ☻rDX☻.mkv (698.5 MB)

There are currently no comments. Feel free to leave one :)

Code:

  • udp://tracker.coppersurfer.tk:6969/announce
  • udp://tracker.openbittorrent.com:80/announce
  • udp://glotorrents.pw:6969/announce
  • udp://tracker.publicbt.com:80/announce
  • http://retracker.krs-ix.ru/announce
  • udp://tracker.pomf.se:80/announce
  • udp://explodie.org:6969/announce
  • http://mgtracker.org:2710/announce
  • http://tracker.aletorrenty.pl:2710/announce
  • http://tracker.btcake.com/announce
  • udp://tracker.openbittorrent.com:80/announce
  • udp://tracker.leechers-paradise.org:6969/announce
  • udp://coppersurfer.tk:6969/announce

X
Attention! Use a VPN when Accessing Free Content !
Your IP address is - Country:
Your Internet provider Tracks your Activity! Hide your IP ADDRESS with a VPN!
Bonus: Get Lag-Free Streams & No popups with any VPN Purchased !

Download Here
Sitemap