logo

Heroes (2006) Season 01 Episode 07 S01E07 1080p x264 BluRay [Dual...

  • Category Movies
  • Type Dubs/Dual Audio
  • Language Hindi
  • Total size 950.9 MB
  • Uploaded By monu987
  • Downloads 77
  • Last checked 4 hours ago
  • Date uploaded 2 years ago
  • Seeders 0
  • Leechers 0

Imaginary Heroes

ComedyDrama

Matt Travis is good-looking, popular, and his school's best competitive swimmer, so everyone is shocked when he inexplicably commits suicide. As the following year unfolds, each member of his family struggles to recover from the tragedy with mixed results.

Infohash : 420A07F548A7225011DE9CA97975938F7D334261


Heroes (2006) Season 01 Episode 07 S01E07 1080p x264 BluRay [Dual Audio] [Hindi Org DD 2.0 - Eng] - monu987





Download Heroes (2006) Season 01 Episode 07 S01E07 1080p x264 BluRay [Dual Audio] [Hindi Org DD 2.0 - Eng] - monu987 Torrent



Quote:



Heroes (2006) Season 01 Episode 07 S01E07 1080p x264 BluRay [Dual Audio] [Hindi Org DD 2.0 - Eng] - monu987
Format : Matroska
Format version : Version 4 / Version 2
File size : 912 MiB
Duration : 43mn 31s
Overall bit rate : 2 931 Kbps
Movie name : Heroes (2006) Season 01 Episode 07 S01E07 1080p - monu987
Encoded date : UTC 2016-08-24 16:40:51
Writing application : mkvmerge v7.9.0 ('Birds') 64bit
Writing library : libebml v1.3.1 + libmatroska v1.4.2
_STATISTICS_WRITING_APP : mkvmerge v7.9.0 ('Birds') 64bit
_STATISTICS_WRITING_DATE_UTC : 2016-08-24 16:40:51
_STATISTICS_TAGS : BPS DURATION NUMBER_OF_FRAMES NUMBER_OF_BYTES
DURATION : 00:43:31.104000000
NUMBER_OF_FRAMES : 81597
NUMBER_OF_BYTES : 62666496

Video
ID : 1
Format : AVC
Format/Info : Advanced Video Codec
Format profile : [email protected]
Format settings, CABAC : Yes
Format settings, ReFrames : 3 frames
Codec ID : V_MPEG4/ISO/AVC
Duration : 43mn 31s
Bit rate : 2 500 Kbps
Width : 1 920 pixels
Height : 1 072 pixels
Display aspect ratio : 16:9
Frame rate mode : Constant
Frame rate : 23.976 fps
Color space : YUV
Chroma subsampling : 4:2:0
Bit depth : 8 bits
Scan type : Progressive
Bits/(Pixel*Frame) : 0.051
Stream size : 765 MiB (84%)
Title : monu987
Writing library : x264 core 142 r2431 ac76440
Default : Yes
Forced : Yes
Color range : Limited
Color primaries : Generic film
Transfer characteristics : BT.709
Matrix coefficients : BT.709
DURATION : 00:43:31.109000000
NUMBER_OF_FRAMES : 62604
NUMBER_OF_BYTES : 815658561
_STATISTICS_WRITING_APP : mkvmerge v7.9.0 ('Birds') 64bit
_STATISTICS_WRITING_DATE_UTC : 2016-08-24 16:40:51
_STATISTICS_TAGS : BPS DURATION NUMBER_OF_FRAMES NUMBER_OF_BYTES

Audio #1
ID : 2
Format : AC-3
Format/Info : Audio Coding 3
Mode extension : CM (complete main)
Format settings, Endianness : Big
Codec ID : A_AC3
Duration : 43mn 31s
Bit rate mode : Constant
Bit rate : 224 Kbps
Channel(s) : 2 channels
Channel positions : Front: L R
Sampling rate : 48.0 KHz
Compression mode : Lossy
Stream size : 69.7 MiB (8%)
Title : monu987
Language : Hindi
Default : Yes
Forced : Yes

Audio #2
ID : 3
Format : AC-3
Format/Info : Audio Coding 3
Mode extension : CM (complete main)
Format settings, Endianness : Big
Codec ID : A_AC3
Duration : 43mn 31s
Bit rate mode : Constant
Bit rate : 192 Kbps
Channel(s) : 6 channels
Channel positions : Front: L C R, Side: L R, LFE
Sampling rate : 48.0 KHz
Compression mode : Lossy
Stream size : 59.8 MiB (7%)
Title : monu987
Language : English
Default : No
Forced : No
_STATISTICS_WRITING_APP : mkvmerge v7.9.0 ('Birds') 64bit
_STATISTICS_WRITING_DATE_UTC : 2016-08-24 16:40:51
_STATISTICS_TAGS : BPS DURATION NUMBER_OF_FRAMES NUMBER_OF_BYTES
DURATION : 00:42:45.751000000
NUMBER_OF_FRAMES : 1408
NUMBER_OF_BYTES : 4553590

Text
ID : 4
Format : PGS
Muxing mode : zlib
Codec ID : S_HDMV/PGS
Codec ID/Info : Picture based subtitle format used on BDs/HD-DVDs
Title : monu987
Language : English
Default : Yes
Forced : Yes

Menu
00:00:00.000 : :Chapter 1
00:06:31.825 : :Chapter 2
00:20:32.636 : :Chapter 3
00:35:07.143 : :Chapter 4





Hindi Audio Source Original VCD.......



Note: No Watermarks/Tags in Audio & Video ;).... Enjoy Movie:)





Download Heroes (2006) Season 01 Episode 07 S01E07 1080p x264 BluRay [Dual Audio] [Hindi Org DD 2.0 - Eng] - monu987 Torrent Download Heroes (2006) Season 01 Episode 07 S01E07 1080p x264 BluRay [Dual Audio] [Hindi Org DD 2.0 - Eng] - monu987 Torrent
Download Heroes (2006) Season 01 Episode 07 S01E07 1080p x264 BluRay [Dual Audio] [Hindi Org DD 2.0 - Eng] - monu987 Torrent Download Heroes (2006) Season 01 Episode 07 S01E07 1080p x264 BluRay [Dual Audio] [Hindi Org DD 2.0 - Eng] - monu987 Torrent
Download Heroes (2006) Season 01 Episode 07 S01E07 1080p x264 BluRay [Dual Audio] [Hindi Org DD 2.0 - Eng] - monu987 Torrent Download Heroes (2006) Season 01 Episode 07 S01E07 1080p x264 BluRay [Dual Audio] [Hindi Org DD 2.0 - Eng] - monu987 Torrent



**Please Seed After Download**


Files:

  • Torrent Downloaded From ExtraTorrent.cc.txt (0.3 KB)
Screenshots
  • 02.png (1.6 MB)
  • 04.png (2.0 MB)
  • 06.png (2.0 MB)
  • 03.png (2.1 MB)
  • 01.png (2.3 MB)
  • 05.png (2.7 MB)
  • Sample.mkv (25.8 MB)
  • Episode 07 - Nothing to Hide 1080p BluRay x264 [Hindi Org DD 2.0 - Eng] - monu987.mkv (912.4 MB)

There are currently no comments. Feel free to leave one :)

Code:

  • udp://tracker.coppersurfer.tk:6969/announce
  • udp://zer0day.to:1337/announce
  • udp://tracker.ilibr.org:6969/announce
  • udp://tracker.opentrackr.org:1337/announce
  • udp://tracker.ilibr.org:80/announce
  • udp://eddie4.nl:6969/announce
  • udp://tracker.internetwarriors.net:1337/announce
  • udp://9.rarbg.me:2730/announce
  • udp://p4p.arenabg.ch:1337/announce
  • udp://p4p.arenabg.com:1337/announce
  • udp://tracker.leechers-paradise.org:6969/announce
  • udp://9.rarbg.to:2710/announce
  • udp://torrent.gresille.org:80/announce/announce

X
Attention! Use a VPN when Accessing Free Content !
Your IP address is - Country:
Your Internet provider Tracks your Activity! Hide your IP ADDRESS with a VPN!
Bonus: Get Lag-Free Streams & No popups with any VPN Purchased !

Download Here
Sitemap