logo

Dongri Ka Raja 2016 Hindi Movies DVDScr XviD AAC New Source with ...

  • Category Movies
  • Type Divx/Xvid
  • Language Hindi
  • Total size 705.5 MB
  • Uploaded By nehalpuja
  • Downloads 9192
  • Last checked 3 hours ago
  • Date uploaded 2 years ago
  • Seeders 1
  • Leechers 1

Infohash : E78C13D6603349E93F785B2BFE0A3631D0C161E9

Dongri Ka Raja 2016 Hindi Movies DVDScr XviD AAC New Source with Sample ☻rDX☻

SCREEN SHOTS:

Download Dongri Ka Raja 2016 Hindi Movies DVDScr XviD AAC New Source with Sample ☻rDX☻ Torrent

or

http://postimage.co.nr/2016/11/diner/1.html

Format : Matroska
Format version : Version 4 / Version 2
File size : 697 MiB
Duration : 2 h 11 min
Overall bit rate : 741 kb/s
Movie name : Dongri Ka Raja 2016 Hindi Movies DVDScr XviD AAC New Source ☻rDX☻

Video
ID : 1
Format : AVC
Format/Info : Advanced Video Codec
Format profile : [email protected]
Format settings, CABAC : Yes
Format settings, ReFrames : 4 frames
Codec ID : V_MPEG4/ISO/AVC
Duration : 2 h 11 min
Bit rate : 675 kb/s
Width : 640 pixels
Height : 272 pixels
Display aspect ratio : 2.35:1
Frame rate mode : Constant
Frame rate : 25.000 FPS
Color space : YUV
Chroma subsampling : 4:2:0
Bit depth : 8 bits
Scan type : Progressive
Bits/(Pixel*Frame) : 0.155
Stream size : 623 MiB (89%)
Title : ☻rDX☻
Writing library : XviD

Audio
ID : 2
Format : AC-3
Format/Info : Audio Coding 3
Mode extension : CM (complete main)
Format settings, Endianness : Big
Codec ID : A_AC3
Duration : 2 h 11 min
Bit rate mode : Constant
Bit rate : 64.0 kb/s
Channel(s) : 2 channels
Channel positions : Front: L R
Sampling rate : 48.0 kHz
Frame rate : 31.250 FPS (1536 spf)
Compression mode : Lossy
Stream size : 60.2 MiB (9%)
Title : ☻rDX☻
Language : English
Default : Yes
Forced : No

Download Dongri Ka Raja 2016 Hindi Movies DVDScr XviD AAC New Source with Sample ☻rDX☻ Torrent

IMDB : http://www.imdb.com/title/tt6046994/

Files:

Dongri Ka Raja 2016 Hindi Movies DVDScr XviD AAC New Source with Sample ☻rDX☻
  • Sample ~ Dongri Ka Raja 2016 Hindi Movies DVDScr XviD AAC New Source ☻rDX☻.mkv (8.4 MB)
  • Dongri Ka Raja 2016 Hindi Movies DVDScr XviD AAC New Source ☻rDX☻.mkv (697.0 MB)

There are currently no comments. Feel free to leave one :)

Code:

  • udp://tracker.coppersurfer.tk:6969/announce
  • udp://tracker.openbittorrent.com:80/announce
  • udp://glotorrents.pw:6969/announce
  • udp://tracker.publicbt.com:80/announce
  • http://retracker.krs-ix.ru/announce
  • udp://tracker.pomf.se:80/announce
  • udp://explodie.org:6969/announce
  • http://mgtracker.org:2710/announce
  • http://tracker.aletorrenty.pl:2710/announce
  • http://tracker.btcake.com/announce
  • udp://tracker.openbittorrent.com:80/announce
  • udp://tracker.leechers-paradise.org:6969/announce
  • udp://coppersurfer.tk:6969/announce

X
Attention! Use a VPN when Accessing Free Content !
Your IP address is - Country:
Your Internet provider Tracks your Activity! Hide your IP ADDRESS with a VPN!
Bonus: Get Lag-Free Streams & No popups with any VPN Purchased !

Download Here
Sitemap