logo

Central Intelligence 2016 UNRATED 2160p 4K UHD BluRay HEVC 10bit ...

  • Category Movies
  • Type HD
  • Language English
  • Total size 52.5 GB
  • Uploaded By SaM
  • Downloads 359
  • Last checked 49 minutes ago
  • Date uploaded 1 year ago
  • Seeders 4
  • Leechers 8

Infohash : D18B05B0DB8598B2F99950748269307B6818A18F


Download Central Intelligence 2016 UNRATED 2160p 4K UHD BluRay HEVC 10bit DTS-HD 5.1 -DDR Torrent
Download Central Intelligence 2016 UNRATED 2160p 4K UHD BluRay HEVC 10bit DTS-HD 5.1 -DDR Torrent

2160p 4K UltraHD BluRay Rip
HEVC 10 Bits BT709

English DTSHD-MA 5.1 Audio


French Subs

SCREENSHOTS
Download Central Intelligence 2016 UNRATED 2160p 4K UHD BluRay HEVC 10bit DTS-HD 5.1 -DDR Torrent Download Central Intelligence 2016 UNRATED 2160p 4K UHD BluRay HEVC 10bit DTS-HD 5.1 -DDR Torrent Download Central Intelligence 2016 UNRATED 2160p 4K UHD BluRay HEVC 10bit DTS-HD 5.1 -DDR Torrent Download Central Intelligence 2016 UNRATED 2160p 4K UHD BluRay HEVC 10bit DTS-HD 5.1 -DDR Torrent Download Central Intelligence 2016 UNRATED 2160p 4K UHD BluRay HEVC 10bit DTS-HD 5.1 -DDR Torrent

SPECS


Source : 4K UHD BluRay @ Zeus (Thanks)
Format : Matroska
File size : 52.4 GiB
Duration : 1 h 56 min
Overall bit rate : 64.4 Mb/s

Video
Format : HEVC
Format profile : Main [email protected]@Main
Bit rate : 60.7 Mb/s
Width : 3 840 pixels
Height : 2 160 pixels
Display aspect ratio : 16:9
Frame rate : 23.976 (24000/1001) FPS
Bit depth : 10 bits
Stream size : 49.3 GiB (94%)
Color primaries : BT.709

Audio #1
Format : DTS MA / Core
Bit rate : 3 694 kb/s / 1 509 kb/s
Channel(s) : 6 channels
Stream size : 3.00 GiB (6%)
Language : English


Chapters : YES


SAMPLE Included



A DDR Exclusive Encode



Files:

Central Intelligence 2016 UNRATED 2160p 4K UHD BluRay HEVC 10bit DTS-HD 5.1 -DDR
  • Central Intelligence 2016 UNRATED 2160p 4K UHD BluRay HEVC 10bit DTS-HD 5.1 -DDR.mkv (52.4 GB)
  • sample-Central Intelligence 2016 UNRATED 2160p 4K UHD BluRay HEVC 10bit DTS-HD 5.1 -DDR.mkv (177.1 MB)
  • A DDR Release !!!.txt (0.3 KB)
  • Torrent downloaded from ExtraTorrent.cc.txt (0.0 KB)

There are currently no comments. Feel free to leave one :)

Code:

  • udp://tracker.coppersurfer.tk:6969/announce
  • udp://tracker.ilibr.org:80/announce
  • udp://tracker.leechers-paradise.org:6969/announce
  • udp://eddie4.nl:6969/announce
  • udp://tracker.ilibr.org:6969/announce
  • udp://tracker.coppersurfer.tk:6969
  • udp://tracker.zer0day.to:1337/announce
  • udp://9.rarbg.me:2740/announce
  • udp://9.rarbg.to:2770/announce
  • udp://explodie.org:6969/announce
  • udp://shadowshq.yi.org:6969/announce
  • udp://ipv4.tracker.harry.lu:80/announce
  • udp://tracker.opentrackr.org:1337/announce
  • udp://p4p.arenabg.ch:1337/announce
  • udp://p4p.arenabg.com:1337/announce

X
Attention! Use a VPN when Accessing Free Content !
Your IP address is - Country:
Your Internet provider Tracks your Activity! Hide your IP ADDRESS with a VPN!
Bonus: Get Lag-Free Streams & No popups with any VPN Purchased !

Download Here
Sitemap