logo

Thor The Dark World (2013) 720p BluRay x264 Dual Audio [Hindi + E...

  • Category Movies
  • Type Dubs/Dual Audio
  • Language Hindi
  • Total size 3.2 GB
  • Uploaded By TheFighter
  • Downloads 2164
  • Last checked 3 hours ago
  • Date uploaded 10 months ago
  • Seeders 3
  • Leechers 1

Thor: The Dark World

ActionAdventureFantasy

Thor fights to restore order across the cosmos… but an ancient race led by the vengeful Malekith returns to plunge the universe back into darkness. Faced with an enemy that even Odin and Asgard cannot withstand, Thor must embark on his most perilous and personal journey yet, one that will reunite him with Jane Foster and force him to sacrifice everything to save us all.

Infohash : 2C72D92814825E95D8E688041272B9994E6675E6

Download Thor The Dark World (2013) 720p BluRay x264 Dual Audio [Hindi + Eng] DD 5.0 ~ Ranvijay Torrent
Download Thor The Dark World (2013) 720p BluRay x264 Dual Audio [Hindi + Eng] DD 5.0 ~ Ranvijay Torrent
Download Thor The Dark World (2013) 720p BluRay x264 Dual Audio [Hindi + Eng] DD 5.0 ~ Ranvijay Torrent
Download Thor The Dark World (2013) 720p BluRay x264 Dual Audio [Hindi + Eng] DD 5.0 ~ Ranvijay Torrent

Thor The Dark World (2013) 720p BluRay x264 Dual Audio [Hindi + Eng] DD 5.0 ~ Ranvijay

Thanks To Rohit For Hindi Audio

Download Thor The Dark World (2013) 720p BluRay x264 Dual Audio [Hindi + Eng] DD 5.0 ~ Ranvijay Torrent

SAMPLE

Download Thor The Dark World (2013) 720p BluRay x264 Dual Audio [Hindi + Eng] DD 5.0 ~ Ranvijay Torrent
Format                                   : Matroska
Format version                           : Version 4 / Version 2
File size                                : 3.21 GiB
Duration                                 : 1 h 52 min
Overall bit rate                         : 4 096 kb/s
Movie name                               : Thor The Dark World (2013) 720p BluRay x264 Dual Audio [Hindi + Eng] DD 5.0 ~ Ranvijay

Video
ID                                       : 1
Format                                   : AVC
Duration                                 : 1 h 52 min
Bit rate                                 : 3 060 kb/s
Width                                    : 1 280 pixels
Height                                   : 534 pixels
Display aspect ratio                     : 2.40:1
Frame rate mode                          : Constant
Frame rate                               : 23.976 (24000/1001) FPS
Stream size                              : 2.40 GiB (75%)
Title                                    : ~Ranvijay~
Language                                 : English
Default                                  : Yes
Forced                                   : No

Audio #1
ID                                       : 2
Format                                   : AC-3
Format/Info                              : Audio Coding 3
Codec ID                                 : A_AC3
Duration                                 : 1 h 52 min
Bit rate mode                            : Constant
Bit rate                                 : 640 kb/s
Channel(s)                               : 6 channels
Channel positions                        : Front: L C R, Side: L R, LFE
Sampling rate                            : 48.0 kHz
Frame rate                               : 31.250 FPS (1536 SPF)
Bit depth                                : 16 bits
Compression mode                         : Lossy
Delay relative to video                  : 24 ms
Stream size                              : 513 MiB (16%)
Title                                    : ~Ranvijay~
Language                                 : Hindi
Service kind                             : Complete Main
Default                                  : Yes
Forced                                   : No

Audio #2
ID                                       : 3
Format                                   : AC-3
Format/Info                              : Audio Coding 3
Codec ID                                 : A_AC3
Duration                                 : 1 h 52 min
Bit rate mode                            : Constant
Bit rate                                 : 384 kb/s
Channel(s)                               : 6 channels
Channel positions                        : Front: L C R, Side: L R, LFE
Sampling rate                            : 48.0 kHz
Frame rate                               : 31.250 FPS (1536 SPF)
Bit depth                                : 16 bits
Compression mode                         : Lossy
Stream size                              : 308 MiB (9%)
Title                                    : ~Ranvijay~
Language                                 : English
Service kind                             : Complete Main
Default                                  : No
Forced                                   : No

Text #1
ID                                       : 4
Format                                   : PGS
Muxing mode                              : zlib
Codec ID                                 : S_HDMV/PGS
Codec ID/Info                            : Picture based subtitle format used on BDs/HD-DVDs
Duration                                 : 1 h 15 min
Bit rate                                 : 364 b/s
Count of elements                        : 62
Stream size                              : 200 KiB (0%)
Title                                    : ~Ranvijay~
Language                                 : English
Default                                  : No
Forced                                   : No

Text #2
ID                                       : 5
Format                                   : PGS
Muxing mode                              : zlib
Codec ID                                 : S_HDMV/PGS
Codec ID/Info                            : Picture based subtitle format used on BDs/HD-DVDs
Duration                                 : 1 h 51 min
Bit rate                                 : 29.0 kb/s
Count of elements                        : 2764
Stream size                              : 23.2 MiB (1%)
Title                                    : ~Ranvijay~
Language                                 : English
Default                                  : No
Forced                                   : No

Text #3
ID                                       : 6
Format                                   : PGS
Muxing mode                              : zlib
Codec ID                                 : S_HDMV/PGS
Codec ID/Info                            : Picture based subtitle format used on BDs/HD-DVDs
Duration                                 : 1 h 52 min
Bit rate                                 : 707 b/s
Count of elements                        : 72
Stream size                              : 580 KiB (0%)
Title                                    : ~Ranvijay~
Language                                 : Hindi
Default                                  : Yes
Forced                                   : No

Menu
00:00:00.000                             : en:Prologue
00:06:13.665                             : en:The Nine Realms At Peace
00:13:05.535                             : en:Strange Happenings In London
00:18:40.995                             : en:The Aether Awakens
00:24:56.829                             : en:Welcome To Asgard
00:29:07.663                             : en:The Last Of The Kursed
00:41:33.366                             : en:Attack On Asgard
00:49:40.227                             : en:We Are Not Immortal
00:55:56.144                             : en:Desperate Times
01:00:08.897                             : en:Escape From Asgard
01:08:12.672                             : en:Brothers In Arms
01:12:39.897                             : en:Return To The Dark World
01:21:34.473                             : en:Follow The Signs
01:26:22.094                             : en:Thor vs. Malekith vs. The Convergence
01:33:58.800                             : en:The Aether Unleashed
01:38:31.656                             : en:Born To Be A King
01:41:49.520                             : en:End Credits


Download Thor The Dark World (2013) 720p BluRay x264 Dual Audio [Hindi + Eng] DD 5.0 ~ Ranvijay Torrent
Download Thor The Dark World (2013) 720p BluRay x264 Dual Audio [Hindi + Eng] DD 5.0 ~ Ranvijay Torrent
Download Thor The Dark World (2013) 720p BluRay x264 Dual Audio [Hindi + Eng] DD 5.0 ~ Ranvijay Torrent
Download Thor The Dark World (2013) 720p BluRay x264 Dual Audio [Hindi + Eng] DD 5.0 ~ Ranvijay Torrent
Download Thor The Dark World (2013) 720p BluRay x264 Dual Audio [Hindi + Eng] DD 5.0 ~ Ranvijay Torrent
Download Thor The Dark World (2013) 720p BluRay x264 Dual Audio [Hindi + Eng] DD 5.0 ~ Ranvijay Torrent
Download Thor The Dark World (2013) 720p BluRay x264 Dual Audio [Hindi + Eng] DD 5.0 ~ Ranvijay Torrent
Download Thor The Dark World (2013) 720p BluRay x264 Dual Audio [Hindi + Eng] DD 5.0 ~ Ranvijay Torrent
Download Thor The Dark World (2013) 720p BluRay x264 Dual Audio [Hindi + Eng] DD 5.0 ~ Ranvijay Torrent
Download Thor The Dark World (2013) 720p BluRay x264 Dual Audio [Hindi + Eng] DD 5.0 ~ Ranvijay Torrent
Download Thor The Dark World (2013) 720p BluRay x264 Dual Audio [Hindi + Eng] DD 5.0 ~ Ranvijay Torrent
Download Thor The Dark World (2013) 720p BluRay x264 Dual Audio [Hindi + Eng] DD 5.0 ~ Ranvijay Torrent
Download Thor The Dark World (2013) 720p BluRay x264 Dual Audio [Hindi + Eng] DD 5.0 ~ Ranvijay Torrent
Download Thor The Dark World (2013) 720p BluRay x264 Dual Audio [Hindi + Eng] DD 5.0 ~ Ranvijay Torrent
Download Thor The Dark World (2013) 720p BluRay x264 Dual Audio [Hindi + Eng] DD 5.0 ~ Ranvijay Torrent
Download Thor The Dark World (2013) 720p BluRay x264 Dual Audio [Hindi + Eng] DD 5.0 ~ Ranvijay Torrent
Download Thor The Dark World (2013) 720p BluRay x264 Dual Audio [Hindi + Eng] DD 5.0 ~ Ranvijay Torrent
Download Thor The Dark World (2013) 720p BluRay x264 Dual Audio [Hindi + Eng] DD 5.0 ~ Ranvijay Torrent
Download Thor The Dark World (2013) 720p BluRay x264 Dual Audio [Hindi + Eng] DD 5.0 ~ Ranvijay Torrent

Files:

  • Thor The Dark World (2013) 720p BluRay x264 Dual Audio [Hindi + Eng] DD 5.0 ~ Ranvijay.mkv (3.2 GB)

Comments

Code:

  • UDP://TRACKER.LEECHERS-PARADISE.ORG:6969/ANNOUNCE
X
Attention! Use a VPN when Accessing Free Content !
Your IP address is - Country:
Your Internet provider Tracks your Activity! Hide your IP ADDRESS with a VPN!
Bonus: Get Lag-Free Streams & No popups with any VPN Purchased !

Download Here
Sitemap