logo

Wonderstruck.2017.HDRip.XviD.AC3.ESub.LLG

  • Category Movies
  • Type Divx/Xvid
  • Language English
  • Total size 981.6 MB
  • Uploaded By Creampie
  • Downloads 51
  • Last checked 5 months ago
  • Date uploaded 10 months ago
  • Seeders 0
  • Leechers 4

Infohash : 24C91AD8AED7FA6674F0F09B4FB310D501F82109

******************************Thumbnail:**********************

Download Wonderstruck.2017.HDRip.XviD.AC3.ESub.LLG Torrent

******************************Screenshots:********************

Screenshot 1

Screenshot 2

Screenshot 3

Screenshot 4

Screenshot 5

Screenshot 6

Screenshot 7

Screenshot 8

Screenshot 9

Screenshot 0

**************************************************************

Complete name : Wonderstruck.2017.HDRip.XviD.AC3.ESub.LLG
Format : MPEG-4
Format profile : Base Media
Codec ID : isom (isom/iso2/avc1/mp41)
File size : 962 MiB
Duration : 1 h 55 min
Overall bit rate : 1 162 kb/s
Writing application : Lavf57.56.101

Video
ID : 1
Format : AVC
Format/Info : Advanced Video Codec
Format profile : [email protected]
Format settings : CABAC / 4 Ref Frames
Format settings, CABAC : Yes
Format settings, RefFrames : 4 frames
Codec ID : avc1
Codec ID/Info : Advanced Video Coding
Duration : 1 h 55 min
Bit rate : 900 kb/s
Width : 720 pixels
Height : 304 pixels
Display aspect ratio : 2.35:1
Frame rate mode : Constant
Frame rate : 23.976 (23976/1000) FPS
Color space : YUV
Chroma subsampling : 4:2:0
Bit depth : 8 bits
Scan type : Progressive
Bits/(Pixel*Frame) : 0.171
Stream size : 746 MiB (78%)

Audio
ID : 2
Format : AC-3
Format/Info : Audio Coding 3
Codec ID : ac-3
Duration : 1 h 55 min
Bit rate mode : Constant
Bit rate : 256 kb/s
Channel(s) : 6 channels
Channel positions : Front: L C R, Side: L R, LFE
Sampling rate : 48.0 kHz
Frame rate : 31.250 FPS (1536 SPF)
Bit depth : 16 bits
Compression mode : Lossy
Stream size : 212 MiB (22%)
Service kind : Complete Main
Default : Yes
Alternate group : 1

Files:

Wonderstruck.2017.HDRip.XviD.AC3.ESub.LLG
  • English.srt (55.0 KB)
  • Sample.ts (19.9 MB)
  • Wonderstruck.2017.HDRip.XviD.AC3.ESub.LLG.mp4 (961.6 MB)

There are currently no comments. Feel free to leave one :)

Code:

  • udp://tracker.openbittorrent.com:80/announce
  • udp://tracker.opentrackr.org:1337/announce
X
Attention! Use a VPN when Accessing Free Content !
Your IP address is - Country:
Your Internet provider Tracks your Activity! Hide your IP ADDRESS with a VPN!
Bonus: Get Lag-Free Streams & No popups with any VPN Purchased !

Download Here
Sitemap