logo

18+.Trafficked.2017.HDRip.x264.AAC.ESub.LLG

  • Category Movies
  • Type Divx/Xvid
  • Language English
  • Total size 960.4 MB
  • Uploaded By Creampie
  • Downloads 589
  • Last checked 5 months ago
  • Date uploaded 9 months ago
  • Seeders 0
  • Leechers 0

Infohash : 2A6784EEFF0E87C9749AF9AB8978C7FA86612E68

******************************Thumbnail:**********************

Download 18+.Trafficked.2017.HDRip.x264.AAC.ESub.LLG Torrent

******************************Screenshots:********************

Screenshot 1

Screenshot 2

Screenshot 3

Screenshot 4

Screenshot 5

Screenshot 6

Screenshot 7

Screenshot 8

Screenshot 9

Screenshot 0

**************************************************************

Complete name : Trafficked.2017.HDRip.x264.AAC.ESub.LLG.mp4
Format : MPEG-4
Format profile : Base Media
Codec ID : isom (isom/iso2/avc1/mp41)
File size : 941 MiB
Duration : 1 h 39 min
Overall bit rate : 1 320 kb/s
Writing application : Lavf57.56.101

Video
ID : 1
Format : AVC
Format/Info : Advanced Video Codec
Format profile : [email protected]
Format settings : CABAC / 4 Ref Frames
Format settings, CABAC : Yes
Format settings, RefFrames : 4 frames
Codec ID : avc1
Codec ID/Info : Advanced Video Coding
Duration : 1 h 39 min
Bit rate : 1 200 kb/s
Width : 720 pixels
Height : 304 pixels
Display aspect ratio : 2.35:1
Frame rate mode : Constant
Frame rate : 24.000 FPS
Color space : YUV
Chroma subsampling : 4:2:0
Bit depth : 8 bits
Scan type : Progressive
Bits/(Pixel*Frame) : 0.228
Stream size : 844 MiB (90%)

Audio
ID : 2
Format : AAC
Format/Info : Advanced Audio Codec
Format profile : LC
Codec ID : mp4a-40-2
Duration : 1 h 39 min
Bit rate mode : Constant
Bit rate : 128 kb/s
Channel(s) : 2 channels
Channel positions : Front: L R
Sampling rate : 44.1 kHz
Frame rate : 43.066 FPS (1024 SPF)
Compression mode : Lossy
Stream size : 91.5 MiB (10%)
Default : Yes
Alternate group : 1

Files:

18+.Trafficked.2017.HDRip.x264.AAC.ESub.LLG
  • English.srt (70.7 KB)
  • Sample.mp4 (19.2 MB)
  • Trafficked.2017.HDRip.x264.AAC.ESub.LLG.mp4 (941.2 MB)

There are currently no comments. Feel free to leave one :)

Code:

  • udp://tracker.openbittorrent.com:80/announce
  • udp://tracker.opentrackr.org:1337/announce
X
Attention! Use a VPN when Accessing Free Content !
Your IP address is - Country:
Your Internet provider Tracks your Activity! Hide your IP ADDRESS with a VPN!
Bonus: Get Lag-Free Streams & No popups with any VPN Purchased !

Download Here
Sitemap