logo

THE GREY 2012 H264 AC3 BRrip BSBT-RG STAR1

  • Category Movies
  • Type h.264/x264
  • Language English
  • Total size 1.5 GB
  • Uploaded By star1
  • Downloads 233
  • Last checked 7 months ago
  • Date uploaded 6 years ago
  • Seeders 0
  • Leechers 0

Infohash : 1EE211CBFE6CE3D86F09E2102E4BCFC138A53919

Download THE GREY 2012 H264 AC3 BRrip BSBT-RG STAR1 Torrent

Code:

http://www.imdb.com/title/tt1601913/


Download THE GREY 2012 H264 AC3 BRrip BSBT-RG STAR1 Torrent

SCREENS:
Download THE GREY 2012 H264 AC3 BRrip BSBT-RG STAR1 Torrent
Download THE GREY 2012 H264 AC3 BRrip BSBT-RG STAR1 Torrent
Download THE GREY 2012 H264 AC3 BRrip BSBT-RG STAR1 Torrent
Download THE GREY 2012 H264 AC3 BRrip BSBT-RG STAR1 Torrent
Download THE GREY 2012 H264 AC3 BRrip BSBT-RG STAR1 Torrent

Format : MPEG-4
Format profile : Base Media / Version 2
Codec ID : mp42
File size : 1.49 GiB
Duration : 1h 57mn
Overall bit rate mode : Variable
Overall bit rate : 1 825 Kbps
Encoded date : UTC 2012-03-05 16:29:39
Tagged date : UTC 2012-03-05 17:20:56
Writing application : HandBrake 0.9.6 2012022800

Video
ID : 1
Format : AVC
Format/Info : Advanced Video Codec
Format profile : [email protected]
Format settings, CABAC : Yes
Format settings, ReFrames : 4 frames
Codec ID : avc1
Codec ID/Info : Advanced Video Coding
Duration : 1h 57mn
Bit rate mode : Variable
Bit rate : 1 500 Kbps
Width : 720 pixels
Height : 304 pixels
Display aspect ratio : 2.35:1
Frame rate mode : Variable
Frame rate : 23.960 fps
Minimum frame rate : 15.980 fps
Maximum frame rate : 23.981 fps
Color space : YUV
Chroma subsampling : 4:2:0
Bit depth : 8 bits
Scan type : Progressive
Bits/(Pixel*Frame) : 0.286
Stream size : 1.23 GiB (82%)
Writing library : x264 core 120
Encoding settings : cabac=1 / ref=3 / deblock=1:0:0 / analyse=0x3:0x113 / me=hex / subme=7 / psy=1 / psy_rd=1.00:0.00 / mixed_ref=1 / me_range=16 / chroma_me=1 / trellis=1 / 8x8dct=1 / cqm=0 / deadzone=21,11 / fast_pskip=1 / chroma_qp_offset=-2 / threads=6 / sliced_threads=0 / nr=0 / decimate=1 / interlaced=0 / bluray_compat=0 / constrained_intra=0 / bframes=3 / b_pyramid=2 / b_adapt=2 / b_bias=0 / direct=1 / weightb=1 / open_gop=0 / weightp=2 / keyint=240 / keyint_min=24 / scenecut=40 / intra_refresh=0 / rc_lookahead=50 / rc=2pass / mbtree=1 / bitrate=1500 / ratetol=1.0 / qcomp=0.60 / qpmin=3 / qpmax=69 / qpstep=4 / cplxblur=20.0 / qblur=0.5 / ip_ratio=1.40 / aq=1:1.00
Encoded date : UTC 2012-03-05 16:29:39
Tagged date : UTC 2012-03-05 17:20:56
Color primaries : BT.601-6 525, BT.1358 525, BT.1700 NTSC, SMPTE 170M
Transfer characteristics : BT.709-5, BT.1361
Matrix coefficients : BT.601-6 525, BT.1358 525, BT.1700 NTSC, SMPTE 170M

Audio #1
ID : 2
Format : AAC
Format/Info : Advanced Audio Codec
Format profile : LC
Codec ID : 40
Duration : 1h 56mn
Bit rate mode : Variable
Bit rate : 160 Kbps
Maximum bit rate : 347 Kbps
Channel(s) : 2 channels
Channel positions : Front: L R
Sampling rate : 48.0 KHz
Compression mode : Lossy
Stream size : 134 MiB (9%)
Encoded date : UTC 2012-03-05 16:29:39
Tagged date : UTC 2012-03-05 17:20:55

Audio #2
ID : 3
Format : AC-3
Format/Info : Audio Coding 3
Mode extension : CM (complete main)
Codec ID : ac-3
Duration : 1h 56mn
Bit rate mode : Constant
Bit rate : 160 Kbps
Channel(s) : 2 channels
Channel positions : Front: L R
Sampling rate : 48.0 KHz
Bit depth : 16 bits
Compression mode : Lossy
Stream size : 134 MiB (9%)
Encoded date : UTC 2012-03-05 16:29:39
Tagged date : UTC 2012-03-05 17:20:55

TRACKERS:

Code:

http://fr33dom.h33t.com:3310/announce
http://tracker.publicbt.com:80/announce
http://exodus.desync.com:6969/announce
http://tracker.torrent.to:2710/announce
http://tracker.ex.ua/announce
http://tracker.torrentbay.to:6969/announce
http://tracker.pow7.com/announce
http://tracker.prq.to/announce
http://ipv4.tracker.harry.lu/announce
http://10.rarbg.com/announce
udp://tracker.1337x.org:80/announce
udp://tracker.openbittorrent.com:80/announce
udp://tracker.novalayer.org:6969/announce



INFOHASH: 1EE211CBFE6CE3D86F09E2102E4BCFC138A53919

GREETZ TO ALL RG's

Files:

  • the grey 2012 h264 ac3 brrip star1.mp4 (1.5 GB)
  • bsbt_nfo.txt (5.8 KB)

There are currently no comments. Feel free to leave one :)

Code:

  • http://fr33dom.h33t.com:3310/announce
  • http://tracker.publicbt.com:80/announce
  • http://exodus.desync.com:6969/announce
  • http://tracker.torrent.to:2710/announce
  • http://tracker.ex.ua/announce
  • http://tracker.torrentbay.to:6969/announce
  • http://tracker.pow7.com/announce
  • http://tracker.prq.to/announce
  • http://ipv4.tracker.harry.lu/announce
  • http://10.rarbg.com/announce
  • udp://tracker.1337x.org:80/announce
  • udp://tracker.openbittorrent.com:80/announce
  • udp://tracker.novalayer.org:6969/announce
  • udp://tracker.1337x.org:80/announce
  • udp://tracker.publicbt.com:80/announce
  • udp://tracker.openbittorrent.com:80/announce

X
Attention! Use a VPN when Accessing Free Content !
Your IP address is - Country:
Your Internet provider Tracks your Activity! Hide your IP ADDRESS with a VPN!
Bonus: Get Lag-Free Streams & No popups with any VPN Purchased !

Download Here
Sitemap