logo

Thor The Dark World 2013 x264 720p Esub BluRay Dual Audio English...

  • Category Movies
  • Type Dubs/Dual Audio
  • Language English
  • Total size 796.9 MB
  • Uploaded By PENDUDESI
  • Downloads 908
  • Last checked 3 hours ago
  • Date uploaded 3 months ago
  • Seeders 6
  • Leechers 8

Thor: The Dark World

ActionAdventureFantasy

Thor fights to restore order across the cosmos… but an ancient race led by the vengeful Malekith returns to plunge the universe back into darkness. Faced with an enemy that even Odin and Asgard cannot withstand, Thor must embark on his most perilous and personal journey yet, one that will reunite him with Jane Foster and force him to sacrifice everything to save us all.

Infohash : 6BF6086E41736E12C53BEEDB53AF271BE578D806

http://www.gopisahi.pw/
Download Thor The Dark World 2013 x264 720p Esub BluRay Dual Audio English Hindi GOPISAHI Torrent
Format : Matroska
Format version : Version 4 / Version 2
File size : 797 MiB
Duration : 1 h 52 min
Overall bit rate : 994 kb/s
Movie name : Thor The Dark World 2013 GOPISAHI

Video
Format : AVC
Codec ID : V_MPEG4/ISO/AVC
Duration : 1 h 52 min
Bit rate : 799 kb/s
Width : 1 242 pixels
Height : 528 pixels
Display aspect ratio : 2.35:1
Frame rate mode : Constant
Frame rate : 23.976 (24000/1001) FPS
Color space : YUV
Chroma subsampling : 4:2:0
Bit depth : 8 bits
Scan type : Progressive
Bits/(Pixel*Frame) : 0.051
Stream size : 640 MiB (80%)
Title : GOPISAHI
Writing library : x264 core 148 r2708 86b7198

Audio #1
Format : AAC
Duration : 1 h 52 min
Bit rate : 96.0 kb/s
Channel(s) : 2 channels
Channel positions : Front: L R
Sampling rate : 48.0 kHz
Frame rate : 46.875 FPS (1024 SPF)
Compression mode : Lossy
Delay relative to video : -21 ms
Stream size : 77.1 MiB (10%)
Title : GOPISAHI
Language : English

Audio #2
Format : AAC
Duration : 1 h 52 min
Bit rate : 96.0 kb/s
Channel(s) : 2 channels
Channel positions : Front: L R
Sampling rate : 48.0 kHz
Frame rate : 46.875 FPS (1024 SPF)
Compression mode : Lossy
Delay relative to video : -21 ms
Stream size : 77.1 MiB (10%)
Title : GOPISAHI
Language : Hindi

Text
Language : English
Download Thor The Dark World 2013 x264 720p Esub BluRay Dual Audio English Hindi GOPISAHI Torrent
Download Thor The Dark World 2013 x264 720p Esub BluRay Dual Audio English Hindi GOPISAHI Torrent
Download Thor The Dark World 2013 x264 720p Esub BluRay Dual Audio English Hindi GOPISAHI Torrent

Files:

  • Thor The Dark World 2013 x264 720p Esub BluRay Dual Audio English Hindi GOPISAHI.mkv (796.9 MB)

There are currently no comments. Feel free to leave one :)

Code:

  • udp://9.rarbg.com:2740/announce
  • udp://9.rarbg.to:2800/announce
  • udp://inferno.demonoid.pw:3391/announce
  • udp://tracker.leechers-paradise.org:6969/announce
  • udp://tracker.coppersurfer.tk:80/announce
  • udp://tracker.coppersurfer.tk:6969/announce
  • udp://tracker.opentrackr.org:1337/announce
  • udp://p4p.arenabg.com:1337/announce
  • UDP://EDDIE4.NL:6969/ANNOUNCE
  • udp://tracker.pirateparty.gr:6969/announce
  • udp://tracker.tiny-vps.com:6969/announce
  • udp://public.popcorn-tracker.org:6969/announce
  • udp://tracker.torrent.eu.org:451/announce
X
Attention! Use a VPN when Accessing Free Content !
Your IP address is - Country:
Your Internet provider Tracks your Activity! Hide your IP ADDRESS with a VPN!
Bonus: Get Lag-Free Streams & No popups with any VPN Purchased !

Download Here
Sitemap